<?xml version="1.0" standalone="no"?>
<!DOCTYPE svg PUBLIC "-//W3C//DTD SVG 1.1//EN" "http://www.w3.org/Graphics/SVG/1.1/DTD/svg11.dtd" >
<svg xmlns="http://www.w3.org/2000/svg">
<metadata>
<json>
<![CDATA[
{
	"fontFamily": "appsbd",
	"majorVersion": 1,
	"minorVersion": 0,
	"version": "Version 1.0",
	"fontId": "appsbd",
	"psName": "appsbd",
	"subFamily": "Regular",
	"fullName": "appsbd",
	"description": "Font generated by IcoMoon."
}
]]>
</json>
</metadata>
<defs>
<font id="appsbd" horiz-adv-x="1024">
<font-face units-per-em="1024" ascent="960" descent="-64" />
<missing-glyph horiz-adv-x="1024" />
<glyph unicode="&#x20;" horiz-adv-x="512" d="" />
<glyph unicode="&#xe900;" glyph-name="envato" data-tags="a2f2f692e737461636b2e696d6775722e636f6d2f" d="M886.921 956.728c-22.41-6.216-38.114-14.558-64.941-34.679-17.176-12.759-18.812-14.231-35.333-32.552-60.197-66.576-79.826-88.659-105.181-118.267-15.867-18.812-31.407-36.805-34.515-40.077-2.944-3.272-10.469-12.105-16.521-19.793-15.376-18.975-26.173-32.388-46.456-57.252-9.488-11.614-21.265-26.5-26.173-32.879-9.651-12.596-17.176-22.41-30.262-39.259-18.975-24.7-63.141-84.57-83.098-113.033-36.314-51.854-84.57-124.156-95.203-142.804-1.145-1.799-6.543-10.469-12.105-19.466-31.080-48.746-75.082-127.427-100.764-179.282-14.722-29.771-35.333-74.428-37.459-81.135-0.981-2.944 1.799-6.38 16.521-20.12 65.595-61.669 158.671-92.422 271.867-89.641 82.934 1.963 147.711 20.12 215.105 60.36 48.746 29.117 81.626 60.688 112.542 108.452 17.012 26.009 38.932 67.885 48.746 92.585 27.808 69.521 41.222 114.178 57.743 191.223 7.688 35.824 18.812 98.638 21.429 121.866 0.491 4.58 2.781 22.247 4.907 39.259 11.287 89.15 17.339 195.149 17.339 306.055 0 60.033 0 60.36-3.926 68.539-9.488 20.447-29.444 34.024-50.873 34.679-7.525 0.327-15.54-0.654-23.392-2.781zM422.686 810.489c-23.719-9.651-27.154-11.287-62.814-29.117-47.601-23.719-83.752-45.638-122.684-74.755-41.058-30.426-89.641-79.172-112.051-111.888-1.799-2.944-6.052-8.833-9.16-13.413-19.139-27.481-40.077-74.101-48.092-107.144-11.778-48.256-11.778-117.286 0-175.847 9.488-47.928 26.827-101.419 46.129-143.131 3.599-7.688 7.525-16.358 8.833-19.302 1.145-2.781 2.781-5.235 3.272-5.235 0.981 0 24.864 52.018 125.792 273.994 56.435 123.829 53.163 116.795 57.907 127.264 2.29 4.58 7.361 15.867 11.287 25.027 4.089 8.997 9.651 21.102 12.268 26.99 2.781 5.725 18.321 39.913 34.679 75.9s31.407 69.194 33.534 73.61c9.815 21.429 13.904 30.426 13.904 30.916s3.272 7.525 7.197 16.031c8.997 19.139 15.704 34.188 15.704 35.006 0 1.309-2.617 0.491-15.704-4.907z" />
<glyph unicode="&#xe901;" glyph-name="appsbd" data-tags="Asset 5_400x" d="M136.976 960h751.657c36.108-5.797 70.863-22.574 95.326-50.127 22.14-23.595 34.601-54.494 40.041-86.031v-747.214c-4.98-38.943-23.468-76.506-53.805-101.838-27.273-23.825-63.202-37.053-99.336-37.334-233.298-0.051-466.571 0-699.87-0.026-9.244-0.051-18.514-0.23-27.732 0.664-42.722 2.962-83.554 25.23-109.576 59.167-19.893 25.281-31.588 57.099-32.227 89.3-0.051 241.010 0.026 481.995-0.051 722.98 0.332 43.692 21.144 86.568 54.622 114.479 22.702 19.791 51.532 31.001 80.95 35.98zM133.963 912.426c-21.629-4.571-41.956-15.577-56.971-31.895-20.454-20.735-30.414-50-30.414-78.83 0.026-235.775-0.102-471.551 0.077-707.326 0.102-31.001 12.717-62.027 36.108-82.712 19.637-18.080 46.246-28.626 73.008-28.166 239.121 0.077 478.267-0.026 717.413 0.077 43.437 0.511 84.142 30.567 98.544 71.348 8.58 21.501 6.461 44.918 6.665 67.518 0 227.246 0 454.493 0 681.764 0.358 22.242-6.537 44.561-19.152 62.87-18.386 27.63-50.434 45.812-83.554 47.293-241.725 0.051-483.425 0-725.125 0.026-5.592-0.026-11.159-0.741-16.599-1.966zM232.992 686.074c66.088 78.702 167.032 127.502 269.994 128.345 68.284 1.839 136.746-17.135 194.969-52.758 5.465-3.575 11.874-6.282 16.011-11.542 0.102-4.954-0.843-9.857-0.894-14.811-0.077-58.095 0.077-116.164-0.077-174.233-23.136 41.343-58.325 76.149-100.919 97.191-75.127 37.972-170.837 29.979-238.278-20.531-42.084-31.001-73.595-76.174-86.823-126.864-3.55-0.817-5.184 4.009-7.737 5.72-31.537 34.806-90.194 36.874-125.638 6.844 12.691 59.627 39.709 116.266 79.392 162.64zM790.268 805.404c30.567 8.427 64.709-9.040 76.889-37.998 3.754-8.427 5.49-17.722 5.822-26.915 0-94.484-0.026-188.993 0.026-283.502 0.511-69.177-18.437-138.559-55.413-197.139-35.597-57.022-87.257-103.881-147.548-133.631-84.295-42.237-185.341-49.029-274.641-18.948-54.852 18.309-105.183 49.949-145.531 91.368-59.984 61.517-97.803 144.764-102.247 230.745-2.171 18.744-1.992 39.070 8.325 55.618 12.794 22.931 40.5 36.261 66.42 32.329 31.409-4.137 57.737-33.452 56.69-65.449 0.664-34.193 7.635-68.386 22.6-99.259 19.995-41.981 52.936-77.63 93.284-100.766 47.319-27.656 104.698-36.67 158.401-26.455 42.773 7.993 82.712 28.932 114.504 58.478 40.551 38.33 66.879 91.675 71.322 147.42 1.941 16.113 0.485 32.354 0.792 48.519-0.026 83.401 0 166.802-0.026 250.203 0.204 12.206 0.077 24.898 5.26 36.236 7.661 19.305 24.974 34.091 45.071 39.147zM753.342 147.72c53.32 42.262 94.305 99.208 119.714 162.206-0.204-46.323 0-92.645-0.102-138.942-0.536-22.089-12.155-44.024-31.205-55.592-14.173-8.759-31.793-13.023-48.187-9.014-19.407 3.652-36.593 16.828-45.684 34.244-0.945 3.652 3.422 5.056 5.465 7.099z" />
<glyph unicode="&#xe902;" glyph-name="facebook" data-tags="brand, facebook" d="M967.488 960h-910.976c-31.232 0-56.512-25.28-56.512-56.512v-910.976c0-31.232 25.28-56.512 56.512-56.512h490.432v396.544h-133.504v154.496h133.504v114.112c0 132.224 80.768 204.16 198.784 204.16 56.512 0 105.088-4.096 119.232-6.016v-138.24h-81.92c-64 0-76.48-30.72-76.48-75.52v-98.56h152.96l-19.84-154.88h-133.12v-396.096h260.928c31.232 0 56.512 25.28 56.512 56.512v910.976c0 31.232-25.28 56.512-56.512 56.512z" />
<glyph unicode="&#xe903;" glyph-name="google" data-tags="brand, googleplus" d="M325.76 494.528v-111.68h184.96c-7.424-48-55.872-140.608-184.768-140.608-111.168 0-201.92 92.16-201.92 205.76s90.56 205.76 201.728 205.76c63.36 0 105.728-27.008 129.92-50.304l88.448 85.12c-56.768 53.12-130.368 85.12-218.24 85.12-180.288 0.064-325.888-145.856-325.888-325.696s145.664-325.76 325.76-325.76c188.16 0 312.832 132.16 312.832 318.336 0 21.376-2.304 37.76-5.12 53.952h-307.712zM1024 494.528h-93.12v93.12h-93.12v-93.12h-93.056v-93.056h93.12v-93.12h93.44v93.12h92.736z" />
<glyph unicode="&#xe904;" glyph-name="linkin" data-tags="brand, linkedin" d="M872.448 87.36h-151.68v237.632c0 56.704-1.152 129.6-78.976 129.6-79.040 0-91.136-61.696-91.136-125.44v-241.792h-151.68v488.64h145.664v-66.56h1.92c20.352 38.4 69.888 78.912 143.808 78.912 153.6 0 182.080-101.12 182.080-232.768v-268.032zM227.712 642.88c-48.768 0-88.064 39.488-88.064 88.128 0 48.512 39.296 88 88.064 88 48.64 0 88.064-39.488 88.064-88 0-48.64-39.488-88.128-88.064-88.128zM303.744 87.36h-152.064v488.64h152.064v-488.64zM948.224 960h-872.704c-41.728 0-75.52-33.024-75.52-73.792v-876.416c0-40.768 33.792-73.792 75.52-73.792h872.64c41.728 0 75.84 33.024 75.84 73.792v876.416c0 40.768-34.112 73.792-75.84 73.792z" />
<glyph unicode="&#xe905;" glyph-name="paypal" data-tags="brand, paypal" d="M295.232-64h-132.48c-28.352 0-46.336 22.656-39.936 50.304l6.4 28.8h88.384c28.416 0 56.96 22.72 63.232 50.368l45.44 195.968c6.4 27.648 34.816 50.304 63.168 50.304h37.632c161.664 0 287.36 33.28 377.216 99.84s134.784 153.6 134.784 261.76c0 48-8.32 87.68-25.088 119.040 0 0.64-0.64 1.28-0.64 1.92l5.76-3.2c32-19.84 56.32-45.44 72.96-77.44 17.28-32 25.6-71.68 25.6-119.040 0-108.16-44.8-195.2-135.040-261.76-89.6-65.92-215.68-99.2-376.96-99.2h-38.4c-28.16 0-56.96-22.4-63.36-50.56l-45.44-196.48c-6.4-27.52-34.56-49.92-62.72-49.92zM180.992 51.008h-132.48c-28.288 0-46.272 22.592-39.936 50.304l186.624 808.32c6.4 27.776 34.752 50.368 63.104 50.368h275.84c59.52 0 111.36-4.16 155.712-12.288 44.16-8.128 81.92-22.144 114.56-42.24 31.36-19.84 56.32-45.76 72.32-77.632 16.64-31.872 24.96-71.68 24.96-119.296 0-108.16-44.8-195.2-135.040-261.12-89.6-66.56-215.68-99.2-376.96-99.2h-37.696c-28.16 0-56.704-22.4-63.040-49.92l-45.248-195.84c-6.4-27.52-34.88-49.92-63.36-49.92zM498.688 792.128h-43.264c-28.416 0-56.832-22.592-63.168-50.24l-39.68-171.52c-6.4-27.712 11.52-50.304 39.68-50.304h32.64c71.040 0 126.72 14.592 166.4 43.52 39.68 29.248 59.52 70.592 59.52 124.288 0 35.392-12.8 61.632-38.4 78.464-25.6 17.28-64 25.856-114.56 25.856z" />
<glyph unicode="&#xe906;" glyph-name="twitter" data-tags="brand, twitter" d="M1024 765.568c-37.76-16.64-78.080-27.968-120.64-33.088 43.328 26.048 76.672 67.2 92.352 116.224-40.576-23.68-85.568-40.96-133.44-50.56-38.272 40.96-92.8 66.56-153.344 66.56-115.968 0-210.048-94.080-210.048-209.92 0-16.64 1.92-32.64 5.44-48-174.592 8.32-329.408 92.16-433.024 218.88-18.176-30.784-28.416-66.624-28.416-105.664 0-72.96 37.12-137.152 93.44-174.848-34.432 1.088-66.88 10.56-95.168 26.24v-2.56c0-101.76 72.32-186.752 168.512-206.080-17.664-4.736-36.224-7.296-55.36-7.296-13.44 0-26.24 1.28-39.040 3.712 26.88-83.456 104.32-144.192 196.48-145.92-71.68-56.32-162.56-89.856-260.48-89.856-16.64 0-33.28 0.96-49.92 2.88 93.44-59.52 203.52-94.336 322.56-94.336 386.56 0 597.76 320 597.76 597.12 0 8.96 0 17.92-0.64 26.88 40.96 29.44 76.8 66.56 104.96 108.8z" />
<glyph unicode="&#xe907;" glyph-name="wordpress" data-tags="brand, wordpress" d="M915.968 668.8c35.84-65.536 56.32-140.8 56.32-220.8 0-169.792-92.032-318.080-228.864-397.888l140.608 406.528c26.24 65.664 35.008 118.208 35.008 164.864 0 17.28-1.152 33.28-3.072 47.36zM575.488 664.384c27.648 1.28 52.608 4.48 52.608 4.48 24.832 3.2 21.888 39.68-2.88 38.4 0 0-74.88-5.76-122.88-5.76-45.44 0-121.6 6.4-121.6 6.4-24.96 1.28-28.16-36.48-3.2-37.76 0 0 23.040-2.56 48-3.84l71.68-196.48-101.12-302.080-167.616 497.856c27.648 1.28 52.608 4.288 52.608 4.288 24.96 3.2 22.016 39.68-2.816 38.208 0 0-74.496-5.888-122.624-5.888-8.512 0-18.688 0.32-29.44 0.64 83.328 122.752 225.152 205.312 385.792 205.312 119.808 0 228.928-45.76 310.848-120.832-1.92 0.128-3.84 0.384-5.952 0.384-45.248 0-77.312-39.36-77.312-81.664 0-37.952 21.888-70.080 45.184-107.968 17.536-30.72 38.016-70.080 38.016-126.976 0-39.040-15.168-85.12-35.072-148.48l-45.888-152.96-166.4 495.36zM512-12.16c-45.184 0-88.768 6.592-130.048 18.688l138.112 401.28 141.44-387.648c1.024-2.24 2.112-4.352 3.328-6.4-47.808-16.768-99.2-26.048-152.832-26.048zM51.648 448c0 66.752 14.336 130.112 39.872 187.328l219.52-601.6c-153.408 74.624-259.328 232.064-259.328 414.272zM512 960c-282.24 0-512-229.76-512-512s229.76-512 512-512 512 229.76 512 512-229.76 512-512 512z" />
<glyph unicode="&#xe908;" glyph-name="insert" data-tags="clippy" horiz-adv-x="896" d="M128 192h256v-64h-256v64zM448 576h-320v-64h320v64zM576 384v128l-192-192 192-192v128h320v128h-320zM288 448h-160v-64h160v64zM128 256h160v64h-160v-64zM704 192h64v-128c-1-18-7-33-19-45s-27-18-45-19h-640c-35 0-64 29-64 64v704c0 35 29 64 64 64h192c0 71 57 128 128 128s128-57 128-128h192c35 0 64-29 64-64v-320h-64v192h-640v-576h640v128zM128 704h512c0 35-29 64-64 64h-64c-35 0-64 29-64 64s-29 64-64 64-64-29-64-64-29-64-64-64h-64c-35 0-64-29-64-64z" />
<glyph unicode="&#xe909;" glyph-name="insert2" data-tags="spreadsheet" d="M1005.73 915.681c0 24.438-19.879 44.319-44.319 44.319h-390.22c-24.433 0-44.319-19.881-44.319-44.319v-164.629h-465.854c-23.607 0-42.747-19.138-42.747-42.747v-729.557c0-23.607 19.14-42.747 42.747-42.747h729.562c23.607 0 42.747 19.138 42.747 42.747v197.464h128.081c24.438 0 44.319 19.881 44.319 44.319v462.7c0 0.178 0 0.356-0.010 0.536l0.012 231.914zM747.833 21.495h-644.067v644.063h423.109v-159.982h-92.934c-5.812 0-11.275-2.763-14.72-7.442l-106.991-145.352-52.365 38.539c-5.254 3.87-12.174 4.637-18.161 2.020-5.982-2.615-10.107-8.229-10.831-14.715l-25.975-233.35c-0.719-6.491 2.076-12.873 7.33-16.743 3.195-2.351 7.001-3.555 10.836-3.555 2.485 0 4.978 0.504 7.33 1.533l215.084 94.155c5.977 2.615 10.107 8.229 10.831 14.718s-2.071 12.868-7.33 16.74l-52.36 38.542 81.060 110.127h49.2v-180.266c0-24.435 19.884-44.319 44.319-44.319h176.642v-154.714h-0.005zM917.099 264.844h-301.592v142.711h301.592v-142.711zM917.099 496.193h-301.592v142.718h301.592v-142.718z" />
<glyph unicode="&#xe90a;" glyph-name="admin-settings" data-tags="admin-with-cogwheels-svgrepo-com" d="M550.67 739.261c-1.308 24.428-26.273 20.272-50.632 20.272 17.994-4.792 35.016-11.46 50.632-20.272zM290.271 800.481c-94.564 0-138.091-119.693-62.495-179.893 25.77 68.811 77.071 118.22 144.324 137.722-18.397 25.434-48.12 42.171-81.829 42.171zM94.914 639.319c3.854-12.366 8.847-24.23 14.779-35.469l-31.063-31.080c-8.342-8.342-8.342-21.882 0-30.241l54.753-54.771c3.988-3.988 9.451-6.232 15.145-6.232 5.632 0 11.059 2.244 15.115 6.232l31.029 31.080c4.656-2.464 9.818-3.975 14.64-6.1 0 0.354-0.035 0.721-0.035 1.075 0 25.399 2.917 49.359 8.111 71.858-37.463 24.111-62.461 65.963-62.461 113.747 0 74.641 60.717 135.376 135.342 135.376 50.531 0 94.158-28.131 117.447-69.23 24.864 3.083 48.22 3.083 76.333-2.229-3.616 10.94-7.872 21.647-13.201 31.682l31.063 31.096c4.052 4.005 6.296 9.451 6.296 15.113 0 5.664-2.244 11.108-6.296 15.113l-54.723 54.736c-4.186 4.188-9.65 6.266-15.111 6.266-5.463 0-10.925-2.078-15.081-6.266l-31.162-31.096c-11.257 5.964-23.086 10.957-35.482 14.727v43.932c0 11.794-9.518 21.362-21.347 21.362h-77.438c-11.762 0-21.381-9.568-21.381-21.362v-43.93c-12.364-3.77-24.195-8.763-35.487-14.727l-31.057 31.061c-4.19 4.188-9.652 6.266-15.115 6.266-5.461 0-10.955-2.078-15.111-6.249l-54.788-54.736c-3.988-4.022-6.232-9.449-6.232-15.13 0-5.679 2.244-11.108 6.232-15.113l31.063-31.078c-5.934-11.259-10.925-23.105-14.709-35.469h-43.898c-11.829 0-21.381-9.583-21.381-21.394v-77.44c0-11.777 9.552-21.379 21.381-21.379h43.829zM765.728 224.949c34.248 18.783 57.77 54.736 57.77 96.459 0 60.886-49.557 110.409-110.443 110.409-21.412 0-41.252-6.4-58.206-16.988-10.152-40.411-26.137-79.065-47.046-112.64 59.274-11.143 113.66-38.134 157.925-77.239zM994.26 363.188c0 12.75-10.355 23.073-23.056 23.073h-47.378c-4.091 13.354-9.518 26.154-15.952 38.3l33.54 33.54c4.359 4.324 6.769 10.187 6.769 16.302 0 6.117-2.412 11.982-6.769 16.319l-59.043 59.060c-4.488 4.51-10.42 6.771-16.315 6.771-5.899 0-11.797-2.261-16.285-6.771l-33.609-33.558c-12.133 6.434-24.898 11.827-38.302 15.901v47.38c0 12.733-10.288 23.056-23.021 23.056h-83.536c-5.597 0-10.523-2.244-14.541-5.563 7.034-25.667 10.888-53.497 10.888-83.186 0-18.848-1.472-37.985-4.221-57.015 15.547 5.731 32.099 9.33 49.626 9.33 79.816 0 144.756-64.925 144.756-144.721 0-51.003-26.638-95.703-66.615-121.489 29.087-31.9 52.207-69.748 67.253-112.152 2.477-0.854 5.058-1.476 7.638-1.476 5.897 0 11.797 2.244 16.319 6.754l59.077 59.060c4.324 4.324 6.702 10.187 6.702 16.302s-2.378 11.978-6.702 16.319l-33.609 33.558c6.434 12.129 11.861 24.933 15.952 38.3h47.378c6.098 0 12.030 2.412 16.319 6.771 4.324 4.307 6.771 10.185 6.771 16.302l-0.037 83.531zM811.402 66.888c-35.823 105.403-130.482 177.897-239.756 187.764-36.591-38.749-81.896-63.333-133.201-63.333-51.266 0-96.605 24.581-133.162 63.333-109.338-9.867-204.002-82.362-239.825-187.782l-19.802-58.288c-5.664-16.772-2.952-35.254 7.371-49.644 10.321-14.394 26.942-22.939 44.633-22.939h681.537c17.726 0 34.347 8.545 44.67 22.939 10.286 14.39 13.035 32.871 7.336 49.644l-19.802 58.305zM260.749 513.813c0-130.737 79.585-271.022 177.696-271.022 98.15 0 177.731 140.285 177.731 271.022 0.002 271.002-355.427 271.54-355.427 0z" />
<glyph unicode="&#xe90b;" glyph-name="api" data-tags="api-page-svgrepo-com" d="M986.262 339.63l-35.321 20.394c5.932 29.504 8.933 59.047 8.933 87.976 0 29.349-2.954 58.921-8.785 88.064l35.173 20.308c10.893 6.288 18.686 16.444 21.941 28.594s1.585 24.841-4.705 35.734l-96.188 166.603c-6.29 10.893-16.444 18.686-28.594 21.941-12.152 3.254-24.841 1.585-35.736-4.705l-35.201-20.324c-44.465 39.118-96.795 69.394-152.5 88.23v40.463c0 25.967-21.125 47.092-47.092 47.092h-192.376c-25.967 0-47.092-21.125-47.092-47.092v-40.465c-55.408-18.761-107.666-49.076-152.295-88.349l-35.407 20.444c-10.895 6.29-23.586 7.962-35.736 4.705s-22.304-11.048-28.594-21.941l-96.188-166.603c-6.29-10.893-7.96-23.584-4.705-35.734s11.048-22.306 21.941-28.594l35.321-20.394c-5.928-29.504-8.931-59.047-8.931-87.978 0-29.345 2.954-58.917 8.785-88.062l-35.173-20.308c-22.488-12.983-30.219-41.84-17.238-64.33l96.188-166.603c12.983-22.486 41.84-30.219 64.33-17.236l35.199 20.324c44.467-39.118 96.795-69.394 152.504-88.232v-40.461c0-25.967 21.125-47.092 47.092-47.092h192.376c25.967 0 47.092 21.125 47.092 47.092v40.465c55.41 18.761 107.668 49.076 152.297 88.347l35.405-20.442c22.486-12.983 51.346-5.25 64.33 17.236l96.188 166.603c12.981 22.49 5.25 51.346-17.238 64.33zM977.467 290.33l-96.188-166.601c-4.695-8.136-15.134-10.931-23.267-6.234l-44.872 25.907c-5.701 3.292-12.885 2.489-17.719-1.982-45.876-42.429-101.071-74.441-159.618-92.579-6.292-1.95-10.583-7.769-10.583-14.356v-51.392c0-9.392-7.641-17.033-17.033-17.033h-192.376c-9.392 0-17.033 7.641-17.033 17.033v51.39c0 6.587-4.29 12.406-10.581 14.356-58.907 18.25-114.171 50.222-159.822 92.459-2.848 2.635-6.513 3.998-10.21 3.998-2.577 0-5.168-0.661-7.511-2.014l-44.667-25.786c-8.136-4.695-18.572-1.9-23.267 6.234l-96.188 166.601c-4.695 8.134-1.898 18.572 6.234 23.269l44.631 25.768c5.699 3.29 8.595 9.903 7.146 16.324-6.875 30.474-10.36 61.532-10.36 92.308 0 30.259 3.537 61.288 10.515 92.224 1.447 6.419-1.449 13.033-7.146 16.322l-44.785 25.857c-3.94 2.274-6.757 5.948-7.935 10.342-1.176 4.395-0.573 8.986 1.701 12.925l96.188 166.603c2.274 3.94 5.948 6.759 10.344 7.935 4.393 1.178 8.986 0.573 12.925-1.701l44.872-25.907c5.703-3.294 12.885-2.489 17.719 1.982 45.878 42.429 101.071 74.441 159.618 92.579 6.292 1.95 10.583 7.769 10.583 14.356v51.39c0 9.392 7.641 17.033 17.033 17.033h192.376c9.392 0 17.033-7.641 17.033-17.033v-51.39c0-6.587 4.29-12.406 10.581-14.356 58.905-18.248 114.169-50.22 159.822-92.459 4.833-4.473 12.017-5.276 17.721-1.984l44.667 25.788c3.942 2.274 8.533 2.88 12.925 1.701 4.395-1.178 8.068-3.996 10.344-7.935l96.188-166.603c2.274-3.94 2.88-8.531 1.701-12.925s-3.996-8.068-7.935-10.342l-44.631-25.768c-5.699-3.29-8.595-9.905-7.146-16.324 6.875-30.472 10.36-61.528 10.36-92.31 0-30.259-3.537-61.288-10.515-92.222-1.447-6.419 1.449-13.031 7.146-16.322l44.785-25.857c8.13-4.697 10.927-15.136 6.23-23.269zM512 751.593c-167.403 0-303.593-136.192-303.593-303.593s136.19-303.593 303.593-303.593 303.593 136.192 303.593 303.593-136.19 303.593-303.593 303.593zM512 174.466c-150.827 0-273.534 122.708-273.534 273.534s122.708 273.534 273.534 273.534 273.534-122.708 273.534-273.534-122.708-273.534-273.534-273.534zM568.11 527.155h-56.11c-8.3 0-15.029-6.729-15.029-15.029v-128.25c0-8.3 6.729-15.029 15.029-15.029s15.029 6.729 15.029 15.029v33.065h41.080c30.387 0 55.108 24.72 55.108 55.108s-24.72 55.108-55.108 55.108zM568.11 446.998h-41.080v50.098h41.080c13.813 0 25.049-11.236 25.049-25.049s-11.236-25.049-25.049-25.049zM429.884 517.402c-2.2 5.865-7.807 9.753-14.071 9.753h-16.031c-6.264 0-11.873-3.886-14.071-9.753l-48.094-128.25c-2.916-7.771 1.024-16.434 8.795-19.35s16.434 1.024 19.35 8.795l8.364 22.312h67.342l8.366-22.31c2.262-6.034 7.99-9.757 14.073-9.757 1.753 0 3.537 0.309 5.274 0.96 7.771 2.914 11.711 11.579 8.795 19.35l-48.092 128.25zM385.397 430.967l22.4 59.731 22.4-59.731h-44.799zM656.282 527.155c-8.3 0-15.029-6.729-15.029-15.029v-128.25c0-8.3 6.729-15.029 15.029-15.029s15.029 6.729 15.029 15.029v128.25c0 8.3-6.729 15.029-15.029 15.029zM619.514 785.058c10.43-3.324 20.829-7.186 30.902-11.474 1.92-0.818 3.916-1.204 5.879-1.204 5.843 0 11.402 3.431 13.835 9.146 3.25 7.637-0.305 16.464-7.942 19.715-10.937 4.655-22.223 8.847-33.55 12.456-7.905 2.521-16.362-1.848-18.883-9.755-2.519-7.907 1.85-16.362 9.757-18.883zM201.293 278.862c-3.976 7.286-13.108 9.971-20.392 5.996-7.286-3.976-9.971-13.106-5.996-20.392 6.236-11.43 13.14-22.674 20.518-33.419 2.914-4.242 7.617-6.523 12.402-6.523 2.932 0 5.894 0.856 8.495 2.641 6.843 4.699 8.581 14.055 3.882 20.897-6.799 9.903-13.162 20.266-18.909 30.8zM481.22 95.63c-80.535 6.94-156.981 41.84-215.252 98.274-5.964 5.775-15.478 5.621-21.252-0.341-5.773-5.964-5.623-15.478 0.341-21.252 63.223-61.23 146.18-99.098 233.582-106.628 0.439-0.038 0.874-0.056 1.307-0.056 7.717 0 14.282 5.91 14.957 13.739 0.711 8.268-5.415 15.55-13.683 16.264zM728.272 765.045c-6.853 4.683-16.206 2.924-20.889-3.928s-2.924-16.206 3.928-20.889c69.824-47.719 120.333-118.728 142.222-199.943 1.808-6.705 7.875-11.122 14.502-11.122 1.295 0 2.611 0.168 3.92 0.521 8.016 2.16 12.761 10.408 10.601 18.422-23.75 88.132-78.543 165.175-154.283 216.938z" />
<glyph unicode="&#xe90c;" glyph-name="client" data-tags="businessman-clients-portfolio-svgrepo-com" d="M664.774 748.085c58.545 0 105.966 47.446 105.966 105.966s-47.438 105.949-105.966 105.949c-58.503 0-105.941-47.438-105.941-105.949-0.017-58.52 47.438-105.966 105.941-105.966zM788.61 391.784v-20.291h-87.863v-217.237h294.2v217.237h-87.863v20.291c0 9.872-8.040 17.921-17.921 17.921h-1.683c1.492 5.346 1.923 11.057 1.078 16.901-24.618 167.768-61.869 239.617-153.296 295.683-1.79 1.086-3.631 1.865-5.496 2.661-11.812 7.875-25.057 13.66-38.593 16.992l-26.4-26.574-25.588 26.864c-0.083-0.017-0.174-0.017-0.257-0.058-19.57-4.675-38.61-14.597-53.497-28.539-11.629-7.833-22.148-16.105-31.946-24.9-26.293-17.763-48.457-40.284-69.917-62.175-49.369-50.33-82.682-80.867-141.584-75.836-25.82 2.163-48.366-16.818-50.579-42.522-0.945-10.9 1.964-21.236 7.56-29.716-2.586 0.083-5.139 0.199-7.734 0.199-144.559 0-262.171-117.604-262.171-262.163 0-144.551 117.604-262.171 262.171-262.171 144.551 0 262.163 117.604 262.163 262.171 0 109.895-67.994 204.148-164.080 243.057 73.158 12.085 121.044 60.841 160.955 101.556 0.572 0.597 1.169 1.185 1.749 1.782 2.313-7.394 4.302-17.448 4.302-17.448v-129.523c0-11.057 2.139-21.385 5.927-30.893-0.298-2.139-0.497-4.31-0.497-6.507l0.017-393.924c0-26.848 21.775-48.615 48.615-48.615 26.864 0 48.615 21.767 48.615 48.631l-0.017 338.056c1.923-0.083 3.846-0.24 5.769-0.24 0.398 0 0.763 0.058 1.169 0.058l-0.033-337.891c0-26.848 21.783-48.615 48.615-48.615 26.848 0 48.623 21.767 48.623 48.615v153.155h-77.352v247.16h81.464c3.821 9.516 5.985 19.86 5.985 31.001v141.7c13.171-32.866 24.386-78.007 33.91-142.959 0.24-1.716 0.754-3.332 1.202-4.973h-1.824c-9.864 0-17.896-8.040-17.896-17.921zM159.562 30.627l-0.008 120.082c0.68-0.050 1.368-0.099 2.064-0.099 0.133 0 0.257 0.033 0.398 0.033v-120.14c0-0.589 0.116-1.169 0.174-1.749-0.895 0.622-1.757 1.268-2.628 1.873zM161.692 215.777h-0.174l-9.085 12.425 9.085 60.725h0.174l9.085-60.725-9.085-12.425zM185.813 14.529c6.308 2.578 10.776 8.761 10.776 15.998l0.008 137.638c1.053-1.144 2.304-2.155 3.763-2.934 2.221-1.21 4.609-1.782 6.971-1.782 4.824 0 9.491 2.412 12.251 6.673 0.655-1.243 1.235-2.495 1.94-3.763 3.133-5.769 9.076-9.043 15.219-9.043 2.785 0 5.62 0.68 8.248 2.105 0.92 0.506 1.757 1.078 2.536 1.708l0.017-161.079c0-2.652 0.547-5.164 1.467-7.477-22.397 4.202-43.616 11.687-63.195 21.957zM204.944 213.671c-0.779-5.098-2.304-10.643-4.774-16.694v44.893c1.766-3.067 3.142-6.391 4.062-9.972-0.373-5.711-0.157-11.787 0.713-18.227zM245.245 250.209v-53.331c-9.458 23.201-7.593 40.135 0 53.331zM291.24-11.407c-2.089 0-4.153 0.083-6.217 0.149 2.163 3.258 3.415 7.137 3.415 11.314l-0.008 142.205c0.821-0.033 1.616-0.099 2.429-0.099 0.166 0 0.323 0 0.489 0v-142.122c0-4.194 1.268-8.115 3.456-11.381-1.202-0.008-2.379-0.066-3.564-0.066zM290.975 219.217h-0.207l-10.751 14.705 10.751 71.849h0.207l10.742-71.849-10.742-14.705zM330.621-7.942c1.044 2.462 1.616 5.164 1.616 7.999l0.008 162.845c1.243-1.359 2.735-2.561 4.443-3.49 2.636-1.426 5.462-2.105 8.256-2.105 6.134 0 12.085 3.282 15.219 9.043 0.68 1.26 1.26 2.478 1.906 3.705 2.769-4.227 7.402-6.623 12.218-6.623 2.354 0 4.75 0.564 6.979 1.782 0.763 0.431 1.475 0.903 2.139 1.451l0.017-136.163c0-7.8 5.197-14.332 12.301-16.462-20.142-10.436-42.033-17.954-65.101-21.982zM336.49 196.994v53.099c7.518-13.13 9.383-29.998 0-53.099zM377.437 232.098c0.928 3.548 2.304 6.822 4.045 9.847v-45.067c-2.445 6.009-3.979 11.497-4.766 16.561 0.903 6.598 1.111 12.815 0.721 18.658zM417.605 26.93c0.249 1.169 0.381 2.346 0.381 3.597l-0.008 120.19c0.68-0.033 1.368-0.083 2.064-0.083 0.133 0 0.257 0.017 0.398 0.017l-0.008-120.123c0-0.53 0.116-1.036 0.166-1.542-0.986-0.68-1.981-1.376-2.992-2.056zM420.134 215.777h-0.174l-9.093 12.425 9.093 60.725h0.174l9.093-60.725-9.093-12.425zM519.17 216.523c0-61.454-24.494-117.255-64.156-158.302l0.008 109.945c1.053-1.144 2.304-2.155 3.747-2.934 2.238-1.21 4.617-1.782 6.988-1.782 5.181 0 10.204 2.752 12.856 7.642 41.271 75.844-15.020 110.359-33.512 121.707-0.638 0.398-1.301 0.671-1.956 0.945-4.202 2.81-8.911 4.874-13.71 6.043l-9.383-9.441-9.11 9.565c-0.025-0.033-0.075-0.033-0.091-0.033-4.915-1.185-9.723-3.282-13.992-6.142-0.647-0.282-1.301-0.539-1.923-0.937-6.93-4.244-19.147-11.729-29.558-23.416-13.378 21.626-34.316 34.515-44.86 40.972-0.754 0.472-1.542 0.796-2.313 1.136-4.973 3.282-10.535 5.744-16.23 7.128l-11.115-11.182-10.759 11.298c-0.041-0.025-0.083-0.025-0.108-0.033-5.811-1.376-11.505-3.871-16.545-7.269-0.771-0.332-1.542-0.63-2.279-1.094-10.552-6.474-31.515-19.363-44.901-41.022-10.419 11.704-22.645 19.214-29.592 23.466-0.638 0.406-1.293 0.671-1.956 0.945-4.186 2.81-8.902 4.874-13.71 6.043l-9.375-9.433-9.101 9.557c-0.041-0.017-0.075-0.017-0.108-0.033-4.899-1.177-9.706-3.282-13.983-6.134-0.647-0.282-1.31-0.547-1.923-0.937-18.493-11.331-74.783-45.846-33.512-121.715 2.644-4.874 7.667-7.642 12.856-7.642 2.362 0 4.758 0.564 6.979 1.782 0.779 0.431 1.492 0.903 2.147 1.451l0.008-105.858c-38.212 40.782-61.678 95.53-61.678 155.708 0 125.685 102.236 227.929 227.938 227.929 125.669 0.008 227.913-102.228 227.913-227.921zM458.611 196.994v44.893c6.358-11.124 7.924-25.364 0-44.893zM123.049 241.953v-45.059c-7.999 19.628-6.416 33.918 0 45.059zM665.022 505.658h-0.489l-25.555 34.979 19.777 132.3c1.989 5.322 2.835 10.975 2.512 16.686l3.282 21.817h0.481l25.58-170.794-25.588-34.988zM815.889 394.735c7.642-9.408 19.272-15.235 31.912-15.235 1.989 0 3.995 0.149 6.009 0.439 10.635 1.558 19.678 7.079 25.936 14.796h9.425c1.65 0 2.951-1.326 2.951-2.943v-20.291h-88.551v20.291c0 1.616 1.326 2.943 2.943 2.943h9.375zM335.421 365.782c0-24.611-19.951-44.561-44.561-44.561s-44.561 19.951-44.561 44.561c0 24.611 19.951 44.561 44.561 44.561s44.561-19.951 44.561-44.561zM457.716 339.647c0-20.806-16.867-37.673-37.673-37.673s-37.673 16.867-37.673 37.673c0 20.806 16.867 37.673 37.673 37.673s37.673-16.867 37.673-37.673zM199.299 339.647c0-20.806-16.867-37.673-37.673-37.673s-37.673 16.867-37.673 37.673c0 20.806 16.867 37.673 37.673 37.673s37.673-16.867 37.673-37.673z" />
<glyph unicode="&#xe90d;" glyph-name="report" data-tags="businessman-discussing-a-progress-report-svgrepo-com" d="M966.633 805.203h-222.369v43.039c0 11.865-9.637 21.517-21.517 21.517s-21.522-9.652-21.522-21.517v-43.039h-222.348c-31.646 0-57.382-25.752-57.382-57.392v-75.555l-29.874 9.96c-7.804 2.775-77.419 27.027-141.545 30.181l-8.546-17.067h-0.241l24.175-188.117-28.696-50.141-28.691 50.141 24.149 188.117h-0.246l-8.536 17.093c-66.507-3.262-139.112-29.326-142.364-30.499-1.183-0.42-1.946-1.321-3.042-1.864-2.355-1.121-4.516-2.386-6.57-3.979-1.756-1.362-3.206-2.786-4.629-4.424-1.567-1.751-2.929-3.559-4.137-5.617-1.198-2.074-2.079-4.189-2.883-6.488-0.43-1.265-1.28-2.243-1.587-3.584l-57.377-258.239c-4.265-19.325 7.891-38.471 27.221-42.778 2.652-0.594 5.259-0.876 7.804-0.876 16.447 0 31.282 11.409 35.015 28.107l52.968 238.279c3.697 1.152 7.891 2.386 12.443 3.656v-244.828l-28.542-354.953c-1.89-23.678 15.751-44.447 39.46-46.316 1.173-0.092 2.32-0.138 3.503-0.138 22.177 0 41.016 17.052 42.824 39.588l25.798 320.788c5.336-2.34 11.189-3.687 17.359-3.687 6.181 0 12.064 1.347 17.354 3.687l25.813-320.788c1.808-22.536 20.646-39.588 42.824-39.588 1.183 0 2.335 0.026 3.503 0.138 23.703 1.869 41.349 22.669 39.46 46.316l-28.558 354.953v244.833c18.235-5.167 30.529-9.555 30.852-9.652 0.133-0.056 0.277-0.031 0.456-0.056 0.138-0.056 0.251-0.169 0.394-0.225l52.599-17.528v-193.156c0-31.676 25.736-57.382 57.382-57.382h104.456l-91.598-342.018c-3.072-11.491 3.753-23.284 15.198-26.341 1.874-0.507 3.769-0.727 5.576-0.727 9.514 0 18.204 6.329 20.785 15.971l94.629 353.135h73.353v-250.251c0-11.88 9.632-21.517 21.512-21.517s21.517 9.637 21.517 21.517v250.251h73.358l94.604-353.135c2.606-9.642 11.286-15.971 20.805-15.971 1.797 0 3.702 0.22 5.576 0.727 11.445 3.057 18.301 14.875 15.198 26.341l-91.598 342.018h104.456c31.63 0 57.382 25.711 57.382 57.382v344.307c0.026 31.64-25.752 57.392-57.361 57.392zM995.33 403.504c0-15.802-12.863-28.696-28.696-28.696h-487.756c-15.838 0-28.691 12.894-28.691 28.696v183.57l90.85-30.299c3.779-1.229 7.604-1.833 11.378-1.833 14.993 0 29.029 9.524 34.032 24.533 0.83 2.524 0.671 5.044 0.911 7.604l215.615 99.771c3.584 1.654 5.156 5.94 3.487 9.53-1.654 3.584-5.909 5.182-9.54 3.487l-211.124-97.697c-3.462 10.236-10.994 18.998-22.039 22.695l-113.55 37.842v85.105c0 15.802 12.853 28.696 28.696 28.696h487.756c15.833 0 28.696-12.894 28.696-28.696v-344.307h-0.026zM236.773 720.118c50.034 0 90.656 58.073 90.656 108.148 0 50.1-40.622 90.697-90.656 90.697-50.1 0-90.733-40.632-90.733-90.697 0-50.075 40.632-108.148 90.733-108.148zM840.599 630.046l-51.939-41.626c-1.526-1.234-2.422-3.072-2.422-5.028v-58.007h-97.62c-3.574 0-6.447-2.893-6.447-6.457v-58.017h-97.62c-3.559 0-6.437-2.883-6.437-6.478 0-3.523 2.852-6.442 6.411-6.442h104.072c3.549 0 6.462 2.914 6.462 6.442v58.042h97.62c3.533 0 6.452 2.873 6.452 6.457v61.366l50.602 40.602 12.592-12.576 14.824 47.499-47.504-14.814 10.953-10.963zM605.26 562.771h52.594v-88.464h-52.594v88.464zM709.27 630.021h52.594v-88.459h-52.594v88.459z" />
<glyph unicode="&#xe90e;" glyph-name="dashboard" data-tags="delete-file-symbol-svgrepo-com" d="M417.959 158.912h-313.469v578.177h313.469c28.853 0 52.245 23.392 52.245 52.245s-23.392 52.245-52.245 52.245h-365.714c-28.853 0-52.245-23.392-52.245-52.245v-682.667c0-28.853 23.392-52.245 52.245-52.245h365.714c28.853 0 52.245 23.392 52.245 52.245s-23.392 52.245-52.245 52.245zM971.755 841.578h-365.714c-28.853 0-52.245-23.392-52.245-52.245s23.392-52.245 52.245-52.245h313.469v-578.177h-313.469c-28.853 0-52.245-23.392-52.245-52.245s23.392-52.245 52.245-52.245h365.714c28.853 0 52.245 23.392 52.245 52.245v682.667c0 28.853-23.392 52.245-52.245 52.245zM736.789 366.366c8.209 27.658-7.555 56.741-35.213 64.954-27.658 8.216-56.741-7.555-64.954-35.213-16.248-54.725-67.497-92.947-124.625-92.947-57.125 0-108.366 38.222-124.615 92.947-8.213 27.658-37.292 43.422-64.954 35.213-27.658-8.213-43.426-37.296-35.213-64.954 29.316-98.736 121.752-167.692 224.785-167.692s195.473 68.96 224.789 167.692zM287.208 529.631c-8.209-27.662 7.555-56.741 35.213-64.954 27.683-8.206 56.741 7.558 64.954 35.213 16.245 54.725 67.49 92.947 124.615 92.947 57.132 0 108.38-38.222 124.625-92.947 6.743-22.702 27.533-37.386 50.065-37.386 4.921 0 9.93 0.7 14.89 2.173 27.658 8.213 43.426 37.292 35.213 64.954-29.316 98.736-121.755 167.692-224.796 167.692-103.030 0.003-195.466-68.956-224.778-167.692z" />
<glyph unicode="&#xe90f;" glyph-name="email-settings" data-tags="email-settings-svgrepo-com" d="M338.251 360.437c6.409 1.718 13.027 2.594 19.672 2.594 5.24 0 10.443-0.54 15.534-1.617 9.943 30.252 38.447 52.163 71.984 52.163h58.227c15.471 0 29.764-4.821 41.762-12.811 1.505 10.063 4.79 19.871 10.034 28.955l36.673 63.538c3.25 5.614 7.245 10.584 11.576 15.185l-63.198 51.926 26.207 23.125 67.091-55.098c2.679 1.029 5.28 2.275 8.092 3.034 6.909 1.855 14.052 2.8 21.222 2.8 10.057 0 20.021-1.853 29.355-5.446 6.184 39.134 40.128 69.135 80.962 69.135h37.688v225.45c0 34.145-27.693 61.836-61.855 61.836h-687.425c-34.162 0-61.853-27.689-61.853-61.836v-416.522c0-34.162 27.691-61.853 61.853-61.853h247.328c8.407 7.114 18.167 12.541 29.071 15.44zM92.408 809.72c9.47 10.736 25.809 11.728 36.542 2.291l252.832-223.125c13.587-11.97 34.014-11.97 47.597 0l252.825 223.128c10.717 9.42 27.064 8.428 36.536-2.291 9.459-10.721 8.428-27.066-2.289-36.54l-252.821-223.123c-16.538-14.598-37.3-21.895-58.049-21.895s-41.51 7.297-58.044 21.895l-252.829 223.121c-10.725 9.474-11.75 25.819-2.299 36.54zM91.31 413.103c-3.211-2.644-7.089-3.926-10.935-3.926-4.987 0-9.945 2.158-13.351 6.303-6.052 7.365-4.987 18.236 2.378 24.287l175.036 143.728 26.209-23.125-179.338-147.266zM810.122 401.91c-42.386 0-76.884-34.498-76.884-76.884s34.498-76.888 76.884-76.888c42.384 0 76.888 34.502 76.888 76.888s-34.504 76.884-76.888 76.884zM1008.892 287.494l-27.705 15.994c0.89 7.147 2.175 14.158 2.175 21.54 0 7.384-1.285 14.409-2.175 21.556l27.705 15.992c6.948 4.016 11.999 10.605 14.077 18.34 2.071 7.739 0.992 15.974-3.020 22.92l-36.671 63.507c-5.593 9.69-15.764 15.098-26.197 15.098-5.122 0-10.308-1.295-15.063-4.043l-27.537-15.895c-11.58 8.799-23.903 16.638-37.486 22.335v31.109c0 16.683-13.514 30.2-30.202 30.2h-73.35c-16.683 0-30.202-13.517-30.202-30.2v-31.109c-13.579-5.697-25.9-13.533-37.464-22.335l-27.556 15.911c-4.632 2.679-9.837 4.043-15.094 4.043-2.615 0-5.248-0.334-7.824-1.029-7.735-2.071-14.328-7.129-18.342-14.071l-36.671-63.519c-8.343-14.442-3.389-32.915 11.057-41.259l14.544-8.388c2.038-1.067 3.98-2.177 5.915-3.424l7.247-4.18c-0.046-0.419-0.064-0.843-0.135-1.26 6.961-5.699 13.305-12.172 17.916-20.178l29.193-50.528c10.007-17.476 12.691-37.804 7.482-57.389-3.134-11.676-8.88-22.191-16.735-30.943 3.013-3.385 5.608-7.058 7.955-10.868l21.033 12.153c11.576-8.814 23.879-16.65 37.478-22.345v-31.115c0-16.683 13.519-30.2 30.202-30.2h73.35c16.688 0 30.202 13.517 30.202 30.2v31.115c13.604 5.695 25.904 13.531 37.486 22.345l27.537-15.914c4.63-2.675 9.845-4.041 15.102-4.041 2.607 0 5.236 0.336 7.82 1.025 7.737 2.075 14.324 7.131 18.337 14.075l36.671 63.521c8.341 14.44 3.389 32.91-11.057 41.253zM810.122 213.621c-61.433 0-111.403 49.974-111.403 111.407 0 61.429 49.969 111.403 111.403 111.403 61.429 0 111.407-49.974 111.407-111.403 0-61.433-49.978-111.407-111.407-111.407zM632.33 156.508l-21.994 12.691c0.71 5.678 1.723 11.238 1.723 17.103 0 5.846-1.013 11.429-1.723 17.107l21.994 12.691c5.51 3.186 9.524 8.411 11.176 14.562 1.633 6.151 0.774 12.674-2.395 18.203l-29.102 50.389c-4.452 7.706-12.52 12.002-20.799 12.002-4.057 0-8.175-1.046-11.948-3.219l-21.859-12.624c-9.202 6.994-18.993 13.214-29.762 17.729v24.692c0 13.247-10.736 23.966-23.97 23.966h-58.227c-13.234 0-23.968-10.719-23.968-23.966v-24.692c-10.79-4.516-20.562-10.736-29.743-17.729l-21.88 12.639c-3.657 2.123-7.766 3.204-11.927 3.204-2.090 0-4.2-0.27-6.261-0.824-6.126-1.635-11.354-5.647-14.56-11.161l-29.104-50.405c-6.606-11.476-2.677-26.141 8.781-32.765l21.994-12.691c-0.71-5.678-1.714-11.261-1.714-17.107 0-5.865 1.004-11.425 1.714-17.086l-21.994-12.691c-11.458-6.622-15.386-21.289-8.781-32.746l29.104-50.441c3.206-5.495 8.432-9.509 14.56-11.161 2.059-0.554 4.151-0.824 6.222-0.824 4.167 0 8.31 1.096 11.966 3.219l21.859 12.622c9.202-6.992 18.975-13.211 29.764-17.729v-24.705c0-13.23 10.734-23.968 23.968-23.968h58.227c13.234 0 23.97 10.738 23.97 23.968v24.705c10.787 4.518 20.56 10.738 29.762 17.729l21.859-12.622c3.657-2.123 7.807-3.219 11.968-3.219 2.069 0 4.161 0.27 6.22 0.824 6.137 1.652 11.354 5.664 14.56 11.161l29.102 50.422c6.604 11.462 2.677 26.124-8.783 32.748zM474.546 120.203c-36.484 0-66.078 29.594-66.078 66.101s29.594 66.103 66.078 66.103c36.505 0 66.101-29.598 66.101-66.103 0-36.507-29.596-66.101-66.101-66.101z" />
<glyph unicode="&#xe910;" glyph-name="msg-send" data-tags="send-message-svgrepo-com(1)" d="M748.258 775.573c-1.688 7.165-6.157 13.364-12.417 17.236-6.261 3.87-13.806 5.093-20.969 3.405l-693.492-163.617c-7.165-1.688-13.361-6.157-17.232-12.417s-5.095-13.806-3.407-20.969l112.958-478.779c3.015-12.773 14.411-21.387 26.99-21.387 2.11 0 4.253 0.243 6.397 0.746l693.489 163.611c7.165 1.69 13.361 6.157 17.232 12.417s5.095 13.806 3.407 20.969l-112.956 478.785zM751.708 519.201l-118.797 69.005 75.905 112.806 42.893-181.81zM69.351 550.147l118.326-66.983-75.43-114.827-42.896 181.81zM103.076 594.84l555.592 131.079-217.132-322.68-338.46 191.602zM161.352 160.192l-31.558 133.754 106.295 161.812 200.461-113.478c4.307-2.44 9.009-3.606 13.65-3.606 8.962 0 17.716 4.342 23.047 12.263l128.602 191.117 167.409-97.24 31.557-133.754-639.463-150.868zM996.247 778.324h-174.369c-15.33 0-27.753-12.427-27.753-27.753s12.425-27.753 27.753-27.753h174.369c15.33 0 27.753 12.427 27.753 27.753s-12.424 27.753-27.753 27.753zM966.94 636.968h-115.759c-15.33 0-27.753-12.427-27.753-27.753s12.425-27.753 27.753-27.753h115.759c15.33 0 27.753 12.427 27.753 27.753 0.002 15.327-12.424 27.753-27.753 27.753zM939.16 495.613h-60.192c-15.33 0-27.753-12.427-27.753-27.753s12.425-27.753 27.753-27.753h60.192c15.33 0 27.753 12.427 27.753 27.753s-12.425 27.753-27.753 27.753z" />
<glyph unicode="&#xe911;" glyph-name="msg-send2om" data-tags="send-message-svgrepo-com" d="M118.377 951.122h710.262c65.344 0 118.377-53.033 118.377-118.377v-394.59c0-12.351-2.446-24.031-5.919-35.237l-81.128 72.289c-17.796 18.033-53.585 26.122-81.996 14.56l-145.683 149.115 275.266 214.578-434.049-234.071-434.049 234.071 275.305-214.578-227.678-233.045 277.673 198.281 108.749-70.789 108.828 70.829 176.263-125.914c-17.796-14.442-28.608-36.381-28.608-60.412v-41.156c-44.786-6.629-97.582-22.294-146.117-56.86h-465.498c-65.344 0-118.377 53.033-118.377 118.377v394.55c0 65.344 53.033 118.377 118.377 118.377zM789.18 417.794v-96.043c-127.334 0-295.942-61.714-295.942-376.873 55.716 201.083 130.767 216.551 295.942 216.551v-97.582c0-7.537 4.143-14.324 11.088-17.244 2.328-0.947 4.775-1.421 7.182-1.421 4.853 0 9.628 1.894 13.179 5.485l197.926 177.723c7.26 7.26 7.26 19.098 0 26.359l-197.926 176.184c-5.327 5.327-13.416 6.945-20.361 4.064s-11.088-9.628-11.088-17.204z" />
<glyph unicode="&#xe912;" glyph-name="template" data-tags="tex-template-svgrepo-com" d="M916.978 960h-809.954c-14.887 0-26.998-12.112-26.998-26.998v-970.003c0-14.887 12.112-26.998 26.998-26.998h809.954c14.887 0 26.998 12.112 26.998 26.998v970.003c0 14.887-12.114 26.998-26.998 26.998zM889.98-10.003h-755.957v709.314h755.957v-709.314zM242.017 485.796h539.969c7.457 0 13.499 6.045 13.499 13.499v91.795c0 7.454-6.042 13.499-13.499 13.499h-539.969c-7.457 0-13.499-6.045-13.499-13.499v-91.795c0-7.454 6.042-13.499 13.499-13.499zM242.017 88.919h245.686c7.457 0 13.499 6.045 13.499 13.499v256.485c0 7.454-6.042 13.499-13.499 13.499h-245.686c-7.457 0-13.499-6.045-13.499-13.499v-256.485c0-7.454 6.042-13.499 13.499-13.499zM781.986 372.403h-188.989c-7.457 0-13.499-6.045-13.499-13.499v-78.296c0-7.454 6.042-13.499 13.499-13.499h188.989c7.457 0 13.499 6.045 13.499 13.499v78.296c0 7.457-6.045 13.499-13.499 13.499zM781.986 197.769h-188.989c-7.457 0-13.499-6.045-13.499-13.499v-78.296c0-7.454 6.042-13.499 13.499-13.499h188.989c7.457 0 13.499 6.045 13.499 13.499v78.296c0 7.454-6.045 13.499-13.499 13.499z" />
<glyph unicode="&#xe913;" glyph-name="email-ticket" data-tags="flight-ticket-svgrepo-com" d="M1017.23 615.499l-113.992 196.565c-13.836 23.856-44.505 32.015-68.369 18.179l-304.836-176.784-61.003 32.223c-6.882 3.635-15.097 3.711-22.047 0.204l-433.788-218.996c-8.095-4.083-13.195-12.378-13.195-21.442v-362.408c0-13.263 10.757-24.020 24.020-24.020h848.368c13.263 0 24.020 10.757 24.020 24.020v362.408c0 8.907-4.924 17.078-12.799 21.238l-12.178 6.433 127.615 74.010c11.562 6.706 19.817 17.511 23.252 30.422s1.637 26.39-5.068 37.948zM861.68 787.964l113.992-196.565c0.1-0.176 0.416-0.713 0.204-1.505s-0.749-1.105-0.921-1.205l-37.251-21.602-115.989 199.992 37.251 21.602c0.312 0.18 0.657 0.268 0.993 0.268 0.685 0.004 1.353-0.352 1.721-0.985zM780.155 742.978l14.312-24.681-442.764-256.772-13.315 22.963c-0.1 0.176-0.416 0.713-0.204 1.509 0.212 0.793 0.749 1.105 0.921 1.205l441.050 255.775zM639.257 394.009h-248.401l-15.053 25.958 442.768 256.772 77.569-133.756-256.884-148.973zM457.56 637.409l23.444-12.382-165.995-96.269c-11.562-6.706-19.817-17.511-23.252-30.422s-1.633-26.39 5.072-37.952l38.492-66.376h-287.281v36.659l409.52 206.742zM848.368 107.060h-800.328v238.909h800.328v-238.909zM848.368 430.972v-36.963h-113.351l87.385 50.679 25.966-13.716z" />
<glyph unicode="&#xe914;" glyph-name="locked-user" data-tags="cac4fd72a8ee9bf743c2b3ebc0597218" d="M402.801 921.672c-30.095-4.209-53.77-14.162-85.197-35.625-48.681-33.413-81.879-77.67-95.15-127.017-6.195-23.235-6.861-66.386-1.331-86.518 4.864-17.48 4.649-18.586-0.881-18.586-23.46 0-25.887-35.41-6.42-93.604 7.967-23.235 16.148-38.062 24.115-43.151 7.301-4.649 9.073-7.086 9.073-12.831 0-9.513 11.51-44.483 20.797-63.949 21.023-43.817 52.224-72.581 95.59-88.064 34.304-12.39 64.174-13.947 98.908-5.089 62.423 15.923 104.018 61.727 122.614 134.963 5.53 21.903 6.195 23.235 10.844 22.129 12.175-3.103 26.337 18.371 38.502 58.86 5.97 19.026 7.301 27.218 7.526 45.804 0.215 21.903 0 22.569-6.195 29.204l-6.42 6.636 4.198 23.9c5.089 29.87 5.755 94.935 1.106 113.521-8.182 32.543-26.552 57.324-48.241 65.516-8.407 3.103-13.496 7.086-20.357 15.933-5.089 6.42-14.828 16.159-21.903 21.688-15.933 12.616-48.015 28.324-66.826 32.973-17.49 4.198-55.992 5.97-74.353 3.308zM258.959 356.301c-19.917-13.281-58.86-33.638-87.183-46.029-26.337-11.51-80.323-30.321-86.968-30.321-7.526 0-34.744-16.148-44.257-26.327-15.483-16.599-30.31-50.237-30.31-69.263 0-10.844 52.664-68.823 89.62-98.468 154.235-124.365 367.77-148.040 546.57-60.406 14.602 7.076 30.321 15.268 34.744 18.145l8.407 5.089-12.165 16.159c-14.387 19.251-27.658 46.029-34.304 69.038-6.861 23.675-8.632 72.141-3.318 97.587 4.424 22.569 13.937 47.575 24.34 65.055 4.424 7.086 7.526 13.056 7.301 13.271-0.44 0.44-14.602 7.526-31.642 16.159s-39.383 20.582-49.572 26.778c-10.179 6.195-19.251 11.284-19.917 11.284s-16.814-49.121-35.625-109.097c-18.586-59.75-38.728-122.808-44.257-139.633l-10.179-30.976-17.039 48.241c-9.298 26.552-17.039 49.121-17.039 50.452 0 1.106 3.103 6.42 6.636 11.725 9.738 14.162 21.463 39.834 24.566 53.105 5.089 22.569-2.212 38.062-21.903 47.135-10.619 5.089-15.708 5.97-32.532 5.97-23.675 0-36.731-4.198-47.575-15.493-6.861-7.086-7.741-9.298-8.407-22.794-1.106-18.145 4.864-35.625 21.238-61.737l10.844-17.705-16.814-47.8c-9.298-26.112-17.48-48.241-18.145-48.906s-21.023 61.522-45.363 138.086c-24.115 76.79-44.923 139.407-46.244 139.192-1.116 0-7.311-3.543-13.507-7.516zM803.103 355.195c-56.648-15.053-100.905-57.539-119.265-113.961-7.526-23.009-9.513-60.856-4.649-84.531 7.526-34.519 21.688-60.406 46.909-85.862 33.638-33.638 72.356-49.787 119.491-49.787 47.575 0 85.637 16.148 120.596 50.893 15.043 15.053 21.023 22.794 29.215 38.728 16.148 31.867 18.371 41.165 18.371 80.763 0 31.867-0.44 35.625-6.195 51.999-9.073 25.887-22.129 46.244-42.271 66.611-20.367 20.357-40.94 33.198-66.611 42.045-15.268 5.315-21.903 6.195-48.681 6.861-25.446 0.44-33.853-0.225-46.909-3.758zM866.611 304.077c16.148-3.543 30.321-13.937 38.502-28.549 6.636-11.725 6.861-13.056 6.861-39.834v-27.658l5.97-3.092c12.39-6.195 13.722-11.059 14.602-52.224 0.891-43.592-0.881-52.449-12.616-60.191-7.301-5.089-8.407-5.089-73.687-5.089-72.581 0-75.899 0.44-82.534 13.281-2.652 5.089-3.318 15.268-3.318 48.466 0 41.605 0 42.045 5.53 48.681 3.103 3.543 7.741 7.301 9.953 7.967 3.983 1.331 4.424 3.543 4.424 27.218 0 14.162 1.106 29.43 2.212 33.853 2.652 9.513 17.705 27.218 26.993 32.082 13.507 7.076 38.072 9.288 57.108 5.089zM817.48 269.107l-7.301-6.42-0.666-27.884-0.891-27.884h36.516c31.201 0 36.731 0.44 37.837 3.543 2.212 5.53 1.546 36.731-0.891 45.578-1.321 4.424-5.315 10.619-9.073 13.722-6.195 5.304-8.407 5.755-27.658 5.755-19.681 0.010-21.012-0.215-27.873-6.41zM840.499 169.093c-2.652-1.106-5.98-4.209-7.301-7.301-2.212-4.424-1.772-6.861 2.212-13.056 3.092-5.089 4.649-11.284 4.649-18.811 0-7.741 0.891-11.51 3.318-12.39 5.53-1.987 9.953 4.864 9.953 15.933 0 5.755 1.546 12.39 3.318 14.602 8.632 11.284-2.877 25.887-16.148 21.023z" />
<glyph unicode="&#xe915;" glyph-name="locked-user2" data-tags="multimedia" d="M288.134 830.982c-20.152-28.339-32.055-62.937-32.055-100.281s11.902-71.942 32.055-100.281c31.471-44.253 83.123-73.206 141.438-73.206 95.664 0 173.49 77.826 173.49 173.49s-77.826 173.49-173.49 173.49c-58.318-0.006-109.966-28.958-141.438-73.211zM90.193 730.697c0-65.431 50.781-119.187 114.998-124.020-20.41 36.777-32.055 79.062-32.055 124.020s11.645 87.245 32.055 124.020c-64.218-4.83-114.998-58.588-114.998-124.020zM258.477 518.81c-14.294 2.978-28.98 4.531-43.869 4.531-118.335 0-214.608-96.275-214.608-214.611 0-22.903 18.568-41.472 41.472-41.472h2.834c32.077 111.222 111.125 202.719 214.171 251.551zM982.528 351.234h-13.824v69.12c0 83.847-68.215 152.063-152.063 152.063s-152.063-68.215-152.063-152.063v-49.874l-0.041-0.182c-58.19 63.844-141.983 103.972-234.965 103.972-23.896 0-47.178-2.668-69.576-7.689-105.396-23.62-191.182-99.715-228.387-199.319-12.909-34.56-19.987-71.94-19.987-110.942 0-22.903 18.568-41.472 41.472-41.472h456.189v-81.561c0-22.903 18.568-41.472 41.472-41.472h331.774c22.903 0 41.472 18.568 41.472 41.472v276.478c0 22.901-18.568 41.469-41.472 41.469zM885.761 351.234h-138.239v69.12c0 38.112 31.007 69.12 69.12 69.12s69.12-31.007 69.12-69.12v-69.12z" />
<glyph unicode="&#xe916;" glyph-name="ip" data-tags="1694" d="M342.919 721.131h78.392v-345.5h-78.392v345.5zM594.693 723.712c-47.673 0-81.479-3.087-105.619-7.237v-340.844h77.43v123.534c7.237-1.012 16.397-1.569 26.67-1.569 46.104 0 85.578 11.336 112.248 36.488 20.496 19.535 31.782 48.179 31.782 82.035 0 33.806-14.929 62.45-36.893 79.91-23.077 18.472-57.491 27.683-105.619 27.683zM592.568 557.667c-11.235 0-19.484 0.506-26.114 2.075v101.924c5.617 1.518 16.397 3.087 32.338 3.087 38.917 0 60.983-18.978 60.983-50.709 0-35.375-25.658-56.377-67.207-56.377zM512 960c-232.493 0-420.906-188.413-420.906-420.855s420.906-603.145 420.906-603.145 420.906 370.652 420.906 603.094-188.413 420.906-420.906 420.906zM513.063 283.221c-154.354 0-279.457 125.153-279.457 279.558 0 154.354 125.153 279.457 279.457 279.457 154.405 0 279.457-125.153 279.457-279.457 0-154.354-125.103-279.558-279.457-279.558z" />
<glyph unicode="&#xe917;" glyph-name="shield" data-tags="81566" d="M646.996 574.090c-6.609 6.606-15.821 10.396-25.276 10.396-9.589 0-18.561-3.689-25.273-10.396l-125.156-125.153-43.219 43.225c-6.749 6.729-15.718 10.436-25.25 10.436-9.541 0-18.515-3.712-25.273-10.464-6.752-6.755-10.473-15.735-10.473-25.282 0-9.555 3.724-18.535 10.47-25.279l68.492-68.498c6.695-6.681 15.664-10.359 25.247-10.359 0.003 0 0.003 0 0.003 0 9.589 0 18.555 3.681 25.282 10.384l150.432 150.429c13.934 13.934 13.936 36.61-0.006 50.561zM929.354 748.963c-0.566 6.512-4.51 12.249-10.387 15.106l-398.834 194.058c-5.134 2.5-11.134 2.5-16.267 0l-398.831-194.055c-5.877-2.86-9.824-8.594-10.387-15.106-0.509-5.851-11.946-145.284 32.114-315.584 25.954-100.318 65.918-190.311 118.781-267.48 66.302-96.783 153.069-173.432 257.9-227.813 2.683-1.393 5.623-2.088 8.56-2.088s5.877 0.695 8.56 2.088c104.828 54.382 191.601 131.028 257.903 227.813 52.863 77.169 92.828 167.163 118.779 267.48 44.057 170.3 32.62 309.73 32.111 315.582zM511.999 240.153c-130.378 0-236.447 106.069-236.447 236.447s106.069 236.447 236.447 236.447 236.447-106.069 236.447-236.447-106.069-236.447-236.447-236.447z" />
<glyph unicode="&#xe918;" glyph-name="theme" data-tags="images" horiz-adv-x="1279" d="M670.491 960h29.752c131.49-3.974 264.61-31.179 380.001-96.287 54.206-31.943 105.61-72.291 138.418-126.905 30.465-49.519 40.451-112.131 22.671-167.916-11.616-35.407-27.969-70.967-55.327-97-39.381-36.069-95.013-41.368-145.551-47.838-34.388-4.636-73.667-12.991-93.943-44.17-19.512-31.077-26.033-78.099 3.159-105.559 28.224-25.116 67.299-30.873 102.96-38.362 26.033-6.012 54.664-8.559 76.061-26.135 25.727-19.665 45.188-51.964 39.075-85.282-6.572-35.050-33.624-62.306-62.51-81.156-106.679-65.261-231.139-99.7-356.006-102.298-82.531 0.662-165.317 13.348-243.162 41.266-177.188 61.949-328.342 190.484-424.272 351.115-21.193 37.649-36.935 78.558-44.322 121.199-13.959 77.895 6.266 159.102 49.009 225.025 61.491 95.013 156.657 163.636 258.598 209.996 101.941 46.513 213.868 66.84 325.387 70.304zM588.571 839.413c-37.547-8.864-66.28-44.424-68.267-82.735-0.866-39.534 30.771-74.737 68.267-83.958 45.392-11.921 94.198 23.69 101.432 68.98 11.412 55.581-46.87 110.093-101.432 97.713zM354.375 777.973c-42.488-11.768-73.871-58.689-63.019-102.502 8.457-31.637 35.916-56.906 67.757-64.038 47.583-11.565 99.241 29.854 99.904 78.507 5.4 53.849-52.83 101.891-104.642 88.033zM934.387 758.308c-34.286-10.189-64.904-34.541-79.475-67.604-17.882-38.667-15.029-87.932 12.482-121.454 28.937-38.871 81.156-57.568 128.382-48.653 62 13.348 106.476 79.831 95.115 142.188-12.838 68.216-89.154 118.091-156.504 95.522zM190.586 584.89c-23.639-10.495-43.966-30.567-51.2-55.836-12.634-51.811 31.433-108.361 84.773-108.615 46.411 0.968 85.282 45.545 83.346 91.294-3.974 53.543-66.433 96.083-116.919 73.157zM333.692 391.094c-40.501-16.048-68.47-65.261-52.015-107.545 12.023-30.465 41.622-54.664 74.686-57.313 56.702-7.030 107.036 58.485 86.505 111.519-15.233 42.030-66.127 70.865-109.176 53.34zM532.378 274.073c-35.152-15.335-60.166-54.919-53.289-93.586 8.814-48.551 65.668-84.824 112.742-65.516 41.317 15.080 62.612 64.65 52.474 105.966-15.589 42.794-68.216 73.412-111.927 53.136z" />
<glyph unicode="&#xe919;" glyph-name="remote-login" data-tags="remote-login" horiz-adv-x="916" d="M87.663 898.506c6.718 1.517 13.545 2.167 20.426 2.005 234.924-0.271 469.902 0 704.826-0.108 12.461 0.975 26.061-4.768 30.395-17.283 3.413-15.712 1.625-32.020 1.95-48.003-0.163-276.317 0-552.635-0.108-828.952 1.029-12.57-4.876-26.277-17.5-30.449-15.658-3.251-31.804-1.517-47.624-1.842-225.713 0.163-451.427 0-677.086 0.054-18.584-2.817-35.163 13.491-32.454 32.129-0.108 287.262-0.054 574.578-0.054 861.894-0.975 12.516 4.714 26.223 17.229 30.557zM139.622 831.377c-0.054-262.827-0.054-525.599 0-788.426 212.114-0.054 424.283-0.054 636.397 0 0.054 262.827 0.054 525.599 0 788.426-212.114 0.054-424.283 0.054-636.397 0zM434.523 796.106c98.553 13.924 198.894-58.568 216.882-156.309 19.992-87.609-29.203-183.724-111.177-219.862-64.637-30.341-145.419-21.618-201.766 22.268-61.765 45.403-91.618 128.894-72.98 203.229 17.608 79.048 88.584 142.114 169.041 150.674zM419.569 751.299c-82.679-18.855-137.671-112.261-112.315-193.585 20.751-82.462 115.999-134.854 196.727-107.385 80.132 22.756 130.194 116.108 103.213 195.319-21.889 77.477-109.877 127.269-187.625 105.651zM414.043 692.622c31.045 26.711 82.733 18.53 105.109-15.279 13.545-17.446 13.816-40.256 13.816-61.277 6.339-0.108 12.624-0.217 18.963-0.325-0.379-42.91 0.108-85.821-0.271-128.786-60.736 0.163-121.417 0.108-182.099 0.054-2.059 42.856-0.433 85.767-1.138 128.677 5.851 0.163 11.649 0.325 17.5 0.542-2.059 28.011 3.955 59.002 28.119 76.394zM430.893 658.922c-10.999-11.54-9.373-28.228-10.132-42.802 25.356-0.271 50.712-0.271 76.123-0.217-0.921 14.087 2.276 30.503-8.398 41.773-13.112 18.8-43.777 19.613-57.593 1.246zM446.551 576.894c-19.505-9.048-20.534-39.66-0.867-49.033 17.5-12.028 43.019 4.714 41.231 25.139 0.65 19.938-23.189 33.104-40.364 23.893zM577.449 430.988c7.206 8.344 13.924-1.138 20.101-5.581 34.458-31.804 68.646-63.824 103.375-95.357-26.494-34.404-63.445-59.273-93.894-90.21-9.102-6.068-18.259-22.864-30.287-14.249-2.601 22.43-0.704 45.078-1.138 67.617-110.69-0.325-221.379 0.596-332.069 0.271-6.718 1.192-17.067-2.655-19.938 5.906-1.625 19.342-1.788 38.901 0.054 58.189 1.625 9.373 13.762 5.255 20.209 6.556 110.581 0 221.162-0.379 331.743-0.433 0.921 22.376-2.438 45.24 1.842 67.291zM244.243 195.142c27.144 23.622 51.037 51.308 80.186 72.384 2.005-1.246 6.014-3.847 8.019-5.147 2.384-21.889 0.813-43.994 1.246-65.991 111.015 1.029 222.029 1.409 333.044 2.546 6.556-0.867 20.913 2.601 19.992-8.344 1.463-19.559 1.625-39.335-0.054-58.948-5.743-4.28-13.382-3.034-20.047-3.63-110.798-0.596-221.596-1.463-332.394-2.33-0.325-22.647 2.221-45.457-0.975-67.996-10.999-8.073-19.126 6.339-27.415 11.865-31.424 30.232-66.37 56.835-96.115 88.692 6.827 15.712 23.081 24.652 34.513 36.897z" />
</font>
</defs>
</svg>
